#TITLE:Keep On Movin';
#SUBTITLE:(B4 ZA BEATz);
#ARTIST:N.M.R.;
#TITLETRANSLIT:;
#SUBTITLETRANSLIT:;
#ARTISTTRANSLIT:;
#CREDIT:;
#BANNER:Keep On Movin-banner.png;
#BACKGROUND:Keep On Movin-bg.png;
#LYRICSPATH:;
#CDTITLE:;
#MUSIC:keep on movin mix.mp3;
#MUSICLENGTH:85.733;
#OFFSET:-0.040;
#SAMPLESTART:68.465;
#SAMPLELENGTH:12.000;
#SELECTABLE:YES;
#BPMS:0.000=140.000;
#STOPS:;
#BGCHANGES:;
#FIRSTBEAT:13.000;

#LASTBEAT:200.000;

#SONGFILENAME:Songs/ERICth MIX 2nd Style/Keep on movin/keepmovin.sm;

#HASMUSIC:1;

#HASBANNER:1;


//---------------dance-single - MANIAC----------------
#NOTES:
     dance-single:
     MANIAC:
     hard:
     7:
     0.498,0.525,0.408,0.187,0.187,248.000,35.000,16.000,0.000,0.000:

0000
0000
0000
0000
,
0000
0000
0000
0000
,
0000
0000
0000
0000
,
0000
0000
1000
0100
1000
0100
0000
0000
,
0010
1000
0000
0000
0000
0000
1001
0000
,
0011
0100
0100
0000
,
1000
0100
0010
0000
0001
1000
0100
0000
,
1100
0011
1100
1100
,
1000
0000
0001
0000
0100
0000
0001
0000
0010
0000
0001
0000
1000
0100
0000
0010
,
0000
0001
2000
0000
3000
0000
0000
0000
1000
0000
0000
0000
0001
0000
0000
0000
,
0010
0110
0110
0110
,
1000
0100
0001
0010
0001
0100
1000
0000
,
1100
0100
0001
0100
1000
0010
1010
0000
,
1000
1000
1000
0000
0010
0010
0010
0000
,
0001
0001
0001
0000
1001
0000
0000
0000
,
2001
3002
2003
3001
,
0010
0000
1000
0000
0010
0000
1000
0000
0010
0000
1000
0000
0010
1000
0000
0100
,
0000
0001
1000
0000
0100
0000
1000
0000
0001
0000
1000
0000
0010
0001
0000
0001
,
0000
0000
0010
1000
0010
0100
0010
0110
,
0000
0110
0000
0101
0000
1010
0000
0000
,
0010
0000
0001
0000
0010
0000
0001
0000
0010
0000
0001
0000
0010
0001
0000
1000
,
0000
0100
0010
0000
0100
0000
0010
0000
0100
0000
0001
0000
1000
0100
0000
0100
,
0000
0000
2002
0000
0000
3003
0000
0000
,
0110
1100
0011
0110
,
0000
0000
1000
0000
0010
1000
0000
0000
0000
0000
0001
0000
0010
0001
0000
0000
,
0000
0000
1000
0000
0100
0010
0000
0100
0000
0000
0000
0000
0010
0000
0000
0000
,
1000
0100
0010
0100
0010
0100
0000
0000
,
1000
0000
0010
0000
0001
0000
0001
0100
0000
0000
0000
0000
1001
0000
0000
0000
,
1000
0010
1000
0001
0010
0001
1000
0000
,
0001
0000
0000
0000
0001
0000
0000
0000
0001
0000
0000
0000
0001
0000
0000
1000
,
0001
0010
0001
0100
0010
0100
0010
0000
,
1000
0010
0002
0000
0000
0000
0003
0000
,
1000
0010
0100
0100
,
0001
0010
0100
0100
,
1000
0010
1000
0100
,
0001
0010
0001
0100
,
2002
0000
0000
3003
,
2000
0000
3200
0000
0302
0000
0103
1000
,
0200
0000
0300
0000
,
0000
1000
0010
0000
1010
0000
0011
0000
,
0010
0000
1000
0000
0010
0000
1000
0000
0010
0000
1000
0000
0010
1000
0000
0100
,
0000
0001
1000
0000
0100
0000
1000
0000
0001
0000
1000
0000
0010
0001
0000
0001
,
0000
0000
0010
1000
0010
0100
0010
0110
,
0000
0110
0000
0101
0000
1010
0000
0000
,
0010
0000
0001
0000
0010
0000
0001
0000
0010
0000
0001
0000
0010
0001
0000
1000
,
0000
0100
0010
0000
0100
0000
0010
0000
0100
0000
0001
0000
1000
0100
0000
0100
,
0000
0000
2002
0000
0000
3003
0000
0000
,
0110
0110
0110
0110
,
1000
0000
0100
0000
0010
0000
0100
0000
0001
0000
0100
0000
1000
0010
0000
0001
,
0000
1000
0002
0000
0000
0000
0000
0000
0000
0000
0000
0000
0000
0000
0000
0000
,
0003
0000
0000
0000;

//---------------dance-single - ANOTHER----------------
#NOTES:
     dance-single:
     ANOTHER:
     medium:
     6:
     0.370,0.487,0.152,0.023,0.000,207.000,13.000,2.000,0.000,0.000:

0000
0000
0000
0000
,
0000
0000
0000
0000
,
0000
0000
0000
0000
,
0000
0000
0000
0000
,
1000
1000
0000
0000
,
0001
0001
0000
0000
,
1000
1000
0000
0000
,
0001
0001
1000
0001
,
1000
0100
1000
0100
1000
0100
1000
0100
,
1000
0001
1000
0100
1000
0010
1000
0100
,
1000
0001
1000
0100
,
0010
0000
0001
0010
0001
0010
0000
0000
,
0001
0000
1000
0000
0100
0010
0100
0010
,
0100
0001
1000
0100
,
0010
0001
0010
0000
0001
1000
0100
0000
,
0100
1000
0100
1000
0100
0000
1001
0000
,
0100
1000
0100
1000
0100
1000
0100
1000
,
0100
1000
0001
1000
0010
0100
0001
0100
,
0001
0000
0000
0010
0001
0000
1000
0000
,
1100
0000
1000
0010
,
1000
0000
0001
0000
0100
0010
0100
0000
,
0001
0100
0001
0010
0001
0000
0001
1000
,
0001
0100
0010
0100
,
0110
0110
0110
0110
,
1000
0100
0010
0000
0000
0000
0100
0000
,
1000
0100
0010
0000
0100
0000
0100
0000
,
1000
0100
0010
0000
0000
0000
0100
0000
,
1000
0100
0010
0000
0000
1001
1001
0000
,
0001
0010
0000
0001
,
1000
0000
0000
0110
0000
0000
0000
0000
,
0001
0000
1000
0000
0100
1000
0001
0000
,
0001
0000
1000
0000
0001
0100
0001
0000
,
0010
0000
0001
0000
,
1000
0000
0100
0000
1000
0000
0010
1000
,
0010
0001
0000
0100
,
1000
0000
0001
0000
0000
0000
0100
0001
,
0100
0000
0000
1001
,
1001
0000
0010
0000
1000
0100
1000
0010
,
0000
0000
0001
0000
0000
0010
0001
0000
,
0000
0001
1000
0000
0001
0000
1000
0000
,
0001
1000
0100
1000
0010
1000
0100
1000
,
0010
1000
0001
0100
0001
0100
0001
0100
,
0001
0000
0001
1000
,
0100
0010
0100
0010
0000
0000
0000
0000
,
1001
0000
0000
0000
0001
1000
0100
0000
,
0010
0001
0100
0001
1000
0001
0100
0001
,
1000
0001
1000
0001
,
0100
0010
0100
0010
,
0220
0000
0000
0030
,
0001
0300
0000
0000
0000
0000
0000
0000;

//---------------dance-single - BASIC----------------
#NOTES:
     dance-single:
     BASIC:
     easy:
     4:
     0.217,0.319,0.093,0.058,0.000,117.000,8.000,5.000,0.000,0.000:

0000
0000
0000
0000
,
0000
0000
0000
0000
,
0000
0000
0000
0000
,
0000
0000
0000
0000
,
0000
0000
0000
0000
,
0100
0000
0020
0000
,
0000
0000
0000
0000
,
0100
0000
0100
0030
,
0010
0000
0010
0001
,
1000
0000
1000
0100
,
1000
0000
0001
0010
,
0001
0000
1000
0001
,
1000
0000
0100
0000
,
0100
0000
0010
0000
,
0010
0000
0100
0100
,
0100
0000
0001
1000
,
0001
0000
1001
1001
,
0010
0100
0000
0100
,
0010
0000
0001
1000
,
0100
0010
0001
0100
,
1000
0100
0001
0100
,
0010
0100
0010
0110
,
0110
0000
0000
0000
,
0000
0000
0000
0000
,
1001
0100
0000
0010
,
0100
0000
0001
1000
,
0100
0000
0010
0010
,
0000
0001
0000
1000
,
0001
0010
0000
0001
,
0100
0000
0000
0001
,
0010
0001
1000
0000
,
0100
0000
0000
0010
,
0020
0000
0000
0030
,
2000
0000
0000
0100
,
0000
0000
0000
0100
,
0100
0000
0000
0010
,
0001
3000
0100
0010
,
0110
0001
1000
0100
,
0020
0000
0000
0001
,
0001
0001
0001
0030
,
0100
1000
0001
0100
,
1000
0100
1000
0001
,
1100
0000
0010
0001
,
0010
0000
0110
0000
,
0001
0010
0100
0000
,
0001
1000
0010
0100
,
0000
0001
0000
0001
,
0000
0001
1000
0001
,
0001
0001
0001
0001
,
0002
0000
0000
0003;
